鬼畜眼鏡R 初回特典サウンドトラック

鬼畜眼鏡R游戏所带的特典OST.其实我没搞懂最后2轨有什么区别…找不到任何说明…

TITLE “鬼畜眼鏡R-KICHIKU MEGANE[a:r]- SoundTrack”
FILE “KMRC-001.flac” WAVE
TRACK 01 AUDIO
TITLE “under the darkness -Remix-
PERFORMER “C.G Mix”
INDEX 01 00:00:00
TRACK 02 AUDIO
TITLE “delightful
PERFORMER “北原慎治”
INDEX 01 07:24:19
TRACK 03 AUDIO
TITLE “immature
PERFORMER “北原慎治”
INDEX 01 09:25:18
TRACK 04 AUDIO
TITLE “grief
PERFORMER “北原慎治”
INDEX 01 11:13:44
TRACK 05 AUDIO
TITLE “No other choice
PERFORMER “北原慎治”
INDEX 01 13:55:64
TRACK 06 AUDIO
TITLE “uncanny
PERFORMER “北原慎治”
INDEX 01 16:19:05
TRACK 07 AUDIO
TITLE “trial
PERFORMER “北原慎治”
INDEX 01 17:55:32
TRACK 08 AUDIO
TITLE “impatient
PERFORMER “北原慎治”
INDEX 01 19:22:31
TRACK 09 AUDIO
TITLE “under the darkness -Remix karaoke-
PERFORMER “C.G Mix”
INDEX 01 20:40:61
TRACK 10 AUDIO
TITLE “under the darkness -Remix inst.-
PERFORMER “C.G Mix”
INDEX 01 28:05:05

⊙⊥⊙

更新日:2014/10/22 · 15:43


————本日志版权归花莫笑所有。
日志内的相关图文请勿转载。

コメント

  1. belovedmm说道:

    鬼畜的~顶~
    喜欢^_^

  2. atnles说道:

    超愛No other choice這首的!!!

  3. jelly579说道:

    我是过来收BK的 BK党缺了BK会死的 :我跟你有仇

  4. 格洛利亚同学说道:

    我猜……只是猜而已……大概一个有背景和声一个没有……
    上面那句可以忽视了~要说鬼畜跟R的OP做得真是有感觉啊,每次玩的时候都会打开视频再看一遍~尤其那个remix的画面切换速度~那叫一眼花缭乱目不暇接~(话说这是不是叫什么静态MAD的东东……)
    再吐一句口水——FAN DISK的克御线引发了偶无限滴怨念!虽然HE是出来了……为毛女王非要被泽村压在下面不可啊!!不要拦着我!让我灭了他!!

  5. KAME7730说道:

    很好~~~
    爱死鬼畜鸟~~~